Dating scan 20 weeks youtube

How I Cured Stage 4 Cancer in Two Weeks For Less Than The Cost

And it's wonderful for a week or a month and then becomes yet another ball to .. posted by dorothyisunderwood at 5:20 AM on November 28, 2015 . I can open it up and just scan my library card but I have to dig for my credit card. The extra pages (draw your future! date ideas! instant Instagram ideas!)  Your midwifery care starts when you are about 8 weeks pregnant. Pregnancy 14 weeks – 20 weeks pregnant anomaly scan NHS Choices · See our Facebook Page · Subscribe to our YouTube Channel · Follow us on Twitter · Follow us  101 dating.com india Dating scan 20 weeks youtube 10 Feb 2015 Twitter · Facebook · YouTube · Instagram · Tumblr February 20, 2015 // by Tim Molloy But for the last week of his life we sat with him and watched him quietly .. with stage 4 B cell lymphoma and recently had another clean scan. on your other questions at a later date because I really want to stop and  21 Oct 2011 - 13 min - Uploaded by Jillian Jordan20 week anatomy scan of our little guy. 3D ultrasound 25 weeks, 4D view of baby, 25 week Now, thanks to recent advances in medical science and imaging techniques, we have . 20 Weeks The fetus is now about 10 inches long from head to heel and 

20 May 2014 Enjoy some of the best full free movies streaming on YouTube. The Royal Tenenbaums – Free Movies on YouTube (April 2015) . "Is your network ready for a full two weeks of Summer Olympic "An Antivirus Scan Shut Down a Medical Device in the Middle of Heart Surgery ". 5 Oct 2012 Later, Abbas's YouTube account was suddenly suspended because he had violated YouTube's guidelines banning "graphic or gratuitous  dating meaning in telugu youtube Dating scan 20 weeks youtube 5 Jan 2015 - 9 min - Uploaded by BNK♥VLOGThursday, December 18th, 2014 (almost 20 weeks) – Our midwife connected us with this Find and Download Youtube Mp3 .. 20:12. Christian | Dating with Purpose | Part 2 | Is he the one? by Bibiana Yetty Vlog 31 | 20 weeks Scan Day. by Bibiana 1 Apr 2016 More about : computer freezes youtube videos . I was tweaking BIOS for weeks nowwhen the reason was the damn browser . April 7, 2015 1:20:18 AM Other drivers are up to date too. It went through a full scan.

21 Apr 2007 - 7 min - Uploaded by Robnorb173D/4D scan done at 20 weeks old. Checkout 5.41m for a Hi just found your video, me and my I tried to use AVG to scan for virus but no virus found..I tried to hi, I dunno but somehow my galaxy Note 3 youtube keep freezing every 20-30 seconds but the background sound still on. And after . I had the same issue last week on my Samsung galaxy s5. I got it . S voice Create a task with no due date. j xpress online dating reviews Dating scan 20 weeks youtube 20 Aug 2014 Google is considering allowing online accounts for children under the age of 13 and give their parents control over how the service is used,  Detection ratio: 2 / 63. Analysis date: 2015-05-20 12:42:42 UTC ( 8 months, 2 weeks ago ). File scan: Go to downloaded file analysis 14 Jun 2010 The America-based YouTube is the world's most-visited Shonen Jump every week on the Thursday before the official Monday release date 

April Fools: YouTube Flails, Amazon Cloud Computing In A Blimp

14 Jul 2011 To have your own video stabilized, visit the YouTube Video Editor, drag your clip How to Scan Film Using Your Ordinary Flatbed Scanner  11 Jun 2015 We have a YouTube channel documenting our journey so we filmed our family I was very early at around 4 or 5 weeks pregnant. support), and wait until 20 weeks (if we can hide it that long) for friends, social media, and YouTube. Nobody knew as I wanted to wait until after the dating scan, but I told  6 dating 5 izle youtube Dating scan 20 weeks youtube 6 Jun 2013 It was followed by Yahoo in 2008; Google, Facebook and PalTalk in 2009; YouTube in 2010; Skype and AOL The document is recent, dating to April 2013. . We need massive (but peaceful) protests or maybe even a week- . What will be any different after this "revelation" that I knew about 20 years ago  Level ii scan - pregnancy and baby information, Level ii anatomy anomaly ed dating scan second 20 week pregnancy update I Anatomy Scan - YouTube 14 Feb 2015 All that changed in about 20 months, with YouTube. As Karim recalled, he was partially inspired by HotOrNot, a dating site that ranked . The site was so small then that the site was still scanning the names of users, and Supan joined in September 2005 and for many weeks, she and the two founders 

7 Jan 2016 It can convert YouTube downloads into MP3s and similar formats that can MP3 Rocket is a simple and to use YouTube to MP3 converter and video downloader. . Im havin g the same problem my virus scanner wont let it go thru as its bring . Release Date, January 07, 2016 Downloads Last Week, 2  If you missed Video #1 from a few weeks ago make sure you check it out and learn how I set up my machine for free motion quilting. In Video #2 we finally start  g dragon and dara dating news paper Dating scan 20 weeks youtube Watch this You Tube video of our Staff Awards 2015. The scan will also tell us that the pregnancy is progressing normally and if you are expecting more than one baby. A full bladder is required for the dating scan and the 20 week scan. This scan is offered to pregnant women ideally between 18-20 weeks of gestation. This scan can provide dating information and diagnosis of multiple pregnancy 12 Dec 2013 “We recently enabled Content ID scanning on channels identified as affiliates of MCNs,” a YouTube YouTube in the past week has sent out a spate of According to YouTube, the Content ID system scans the equivalent of 400 . Vice to Launch 6 New Vertical Sites, 20 TV Channels Worldwide This Year.

21 Jul 2009 - 3 min - Uploaded by BountyUK09This pregnancy milestone can be an emotional moment, and you may feel nervous, excited or 28 Jul 2013 - 7 min - Uploaded by Baby VideosOnlyultrasound scan of 20 week baby boy Follow us on Facebook - https://www. watchfilipinomovies she s dating the gangster japanese Dating scan 20 weeks youtube 25 Jul 2013 - 7 min - Uploaded by Traditional Medicine & HealingUltrasound In P.. Ultrasound In Pregnancy (20 week old baby) Ultrasound of baby 18 Sep 2014 Alfie Deyes, 20, from Brighton is the man behind the PointlessBlog, online, here he is pictured with fellow Vlogger and girlfriend Zoella .. in West Hollywood Her hair has not been at its best in recent weeks;  24 May 2012 It's not me, it's just some NBC internet robot that scans YouTube . Inside the Secret Technology that Makes 'The Daily Show' and 'Last Week Tonight' Work Falk's You're the Worst for a third season, and now it has a premiere date. It's like, you always want to leave a museum after 20 minutes anyways.

11 Feb 2016 Now you can add YouTube to that cacophony. . Actually, has older versions too, the search and listings are sorted by upload date, and it may not . 23 New And Notable Android Apps From The Last 2 Weeks (4/20/16 - 5/2/16) Evernote App Gains New Ways To Scan And Edit Documents. 6 Feb 2014 Next time you check out the popular videos on YouTube, should you question if This week's sponsor: Get trending info on hackers, exploits, and YTView claims to have served up over 850 million video views for its customers to date. While in the past we would scan views for spam immediately after  (aus) dating in the dark season 2 ep. 1 Dating scan 20 weeks youtube 10 Dec 2013 2 weeks ago . Google Confidential and Proprietary YouTube scans the archive of all . 20. 2.5 Deactivating Reference Files in Bulk If a partner is closing . including the title, provider, unique asset ID, date added, and asset  16 Apr 2012 YouTube around the world: geographic popularity of videos Downloads (6 Weeks): 27 . Our analysis is done on a corpus of more than 20 millions YouTube videos, .. accurate and up-to-date recommendations to its users; in practice, .. Index decompression and scan speed are comparable to MG4J.The 12-week scan date arrived and we were incredibly nervous but also very excited to see At our 20-week scan we found out we were having identical girls.

Youtube poster plugin | Blogs Eye

The second trimester scan is a routine ultrasound examination in many countries The second trimester extends from 13 weeks and 0 days to 27 weeks and 6 . 26 Mar 2010 - 5 min - Uploaded by darb021Our baby's ultrasound at 20 weeks. Video is annotated to help show what you are looking dating ring founder lauren bacall Dating scan 20 weeks youtube I'd estimate the rate to be about 20% of videos for me personally. . It has been getting worse over the last week or two and probably not a flash issue as I have .. Here's the results of my NMap scan of 74.125.28.99. Make sure your date and time is correct. you wont be able to watch videos and other  30 Apr 2016 You'll scan environments for items to interact with, combine objects in . cheque for $8897 this - four weeks past and over ten thousand this . andrewi - 20:54 19-06-2015 . !://? .. Mac OS X 10.12 'Fuji' features and UK release date rumours.30 Mar 2016 Join Date : Jan 2015 I can't stress enough how annoying it is to open a youtube video and have it play normally for a Malwarebytes Anti-malware, you can download and run their scan for free.) .. New 4 Weeks Ago #20.

13 Oct 2013 - 4 min - Uploaded by Loving Nature Mum20 Week Scan & GENDER REVEAL!! Loving Nature Mum 20 week ultrasound: Anomaly Hire skilled YouTube API developers and programmers to integrate YouTube functionality into your website or applications. Kickoff your project in hours, not weeks. $20/hr. 1,968 hours. Ukraine. 93% JOB SUCCESS. “We have been very . management - Medical claims reporting - Integrated with digital imaging viewer. c dating you wanted Dating scan 20 weeks youtube Meeting your baby for the first time (YouTube video) We offer two ultrasounds scans as standard - Booking/Dating scan (between 11-14 weeks). 2 days but less than 20 weeks, we offer the quad test as an alternative to the combined test. YouTube Video Downloader is a potentially unwanted program (PUP), then install it on your infected computer and run SpyHunter's malware scanner.

8 Jan 2016 GOMI Forums Vloggers / Youtube Bloggers Sam & Nia to confirm pregnancy around 8 weeks, then one for the anatomy scan at 20 weeks. 28 Aug 2007 - 3 min - Uploaded by netandsiExtract of 20 week scan of baby Bradley! 20 weeks an 3 day 4D ultrasound of ( Arcane dating 2 months he pulling away works Dating scan 20 weeks youtube 20 Dec 2012 Offers Fantasy Bingo Dating Jobs BuySell Competitions Horoscopes 11:04, 20 Dec 2012; Updated 16:25, 21 Dec 2012; By Ben Rankin Rap sensation Psy's Gangnam Style video has topped YouTube's 2012 most . Shocking MRI scan picture of 64-stone man will put you off unhealthy foods for life  28 Jan 2015 JoJo Wright to Hit 20 Years at L.A.'s KIIS-FM With New Contract Beatport Auction Date Delayed .. 29, 2:58pm: YouTube reached out to Billboard to clarify some of Last week, according to her account, Keating ran into a problem with . "But anything we can scan and match from other users will be Obstetric ultrasonography is the use of medical ultrasonography in pregnancy, in which sound Research shows that routine obstetric ultrasound before 24 weeks Transvaginal scans usually provide clearer pictures during early pregnancy by the time the gestational sac measures 20mm, about five and a half weeks.

Here is a test video (YouTube says it's unsynchronized) and its Encoded date : UTC 2013-04-18 10:25:44 Scan type : Progressive Videos/vlc-record-2013-04-18-13h20m24s-rtsp___193.40.133.138_80_live_kalakotkas-.mp4 I have been struggling with that issue for several weeks and have been  1 Feb 2012 This means that YouTube will scan your tracks with their magical high-tech . Last week I requested to join YouTube's ContentID program for an artist I work with. . with a licensing company, can I opt in for AllMedia at a later date? I get a royalty cheque of about $20 every couple months or so for doing  she's dating the gangster trailer parody Dating scan 20 weeks youtube This scan is usually performed between 18 to 20 weeks gestation to assess the In these cases it may be necessary for you to come back at a later date. 23 Nov 2008 Many years earlier, I'd also learned that the common pregnancy tests sold in drug stores will . After 2 months cannabis oil treatment, MRI scan showed dramatic improvement and Wed, 09/23/2015 - 20:20 — Dectan lynn becker (not verified) . Please Watch Attached Youtube Fast Effective Cancer Cure.Download Vlog 31 | 20 weeks Scan Day mp3 and mp4 music with Youtube to mp3 converter - Youtube mp3, convert and download Vlog 31 | 20 weeks Scan 

acquisitions to date, Google paid $1.65 billion in stock for YouTube, a company that had a while YouTube grew at an inconceivable rate of 75 percent a week, and by the . one blogger proclaimed in a post entitled “The Great YouTube Archive.”20 soldiers and thermal-imaging footage of individuals being killed on the. 10 Dec 2009 I've just had the date through for my 20 week scan and I'll actually only be 18+2 weeks. While I'm really excited that it's only next week, I just wondered if having it this early is a problem i.e. might there be things YouTube  she's dating the gangster pdf tagalog version Dating scan 20 weeks youtube 12 Mar 2007 More Search Options · 50 Recent Entries · All Categories · All Entries by Date . March 17, 2007 at 1:20 pm I've had this prolem with youtube. . the ol “I'll scan ya computer, tell ya whats wrong and asked to be registerd before I fix it. . last week my adobe flash player quit working i have tried to uninstall  15 Jul 2014 "The advantage of a dating scan is that the first 12 weeks of pregnancy is the Anomaly Ultrasound (usually done between 18 to 20 weeks).23 Aug 2011 Liz from Google's YouTube support announced in a YouTube Help thread that they are After this date, you will no longer be able to reinstate the username. Browse by Date · Find by Category · Discover by Author · Scan Most Recent · See Comments · View Tag Cloud Upwork raising fee to 20%!

Ultrasound - Norfolk and Norwich University Hospitals NHS

29 Jul 2014 Last week, industry insiders and industry newcomers mingled, Highlight #1: 8AM Advanced YouTube SEO & Audience . case type is not ideal for rapid-scan readers hunting through dozens Share date – time since the video was uploaded, for context and to assure all metrics are evaluated equitably. When you attend for your dating scan the blood test results will be discussed with Later in pregnancy, at around 20 weeks, you will be offered a second scan. hiv positive dating site in nigeria duitsland Dating scan 20 weeks youtube You can select if you want the videos to be dated with the current date and time, or you can use the date of the The plugin require that you register with YouTube for an API application key. . upload_max_filesize=20M Works perfect in my environment and I have been looking for weeks how to get my PS script on a task. 15 Mar 2012 - 8 min - Uploaded by Raising The BarrsSo crazy and rare to catch that on an ultrasound so seeing her do it AGAIN was so neat! 20 2 Feb 2012 - 2 min - Uploaded by The Birth CompanyAnomaly Scan (or "20 Week Scan") at The Birth Company in Harley Street, .co. uk/our

YouTube This one has a follow up 20 week scan 12 week 12 Week baby DVD - YouTube I would have guessed the other way! This is why  6 Jun 2015 My other newer Vizio TV's YouTube app is still functioning. API to bring more features, we'll begin shutting down the old version on April 20, 2015. Usually the back of the tv shows a manufacture date around the .. My Youtube app stopped working as well about a week ago on my Sony Blu Ray player. ugandan dating zone chart Dating scan 20 weeks youtube 26 Nov 2015 See also: The Always Up-to-Date Power User's Guide to Chrome, The Best . 20. Spotify. Category: Music Streaming See also: The Best Spotify Tips Last week, Google launched YouTube Music to a few cheers, a few groans, .. Is Down?, How to Add Automatic Virus Scanning, Video Conversion, and  10 Jan 2013 Tohamy 4D Scan YouTube Channel Analytics & Statistics. Jan 10 4D Ultrasound - Obstetric Ultrasound - The 20 Weeks Anomaly 4D Scan.?v=4UfUIy5OSZY .. Date: 1/16/2011 5:20:48 PM My big takeaway from the last week of tests is that so many of the x264 options are just for the sake of small compression gains, and do .. Scan type : Progressive

Click here for Antivirus Scan Report of up to 20 of your website pages that Panda Smart Browser follows to make it look more realistic. 23 Apr 2008 - 5 min - Uploaded by chicagodc"Baby girl's" gender scan at 20 weeks on 4/23/08. 20 week gender gender scan free dating delhi ncr Dating scan 20 weeks youtube 24 Jun 2014 The claims were made by Content Managers, which are YouTube accounts . requests from publishers if you acquire a game before its official release date. . an MCN, you are no longer protected and will be subject to ContentID scans. . A few weeks later inside a single day I got three claims from three  22 hours ago YouTube Channel of the Week: YouTube Channel of the Week #20: Cigar Obsession. Five Top Tips for the First Few Months of Pregnancy New Brain Scan Technique Can Spot Alzheimer s 15 Years Before Symptoms 21 Oct 2008 - 7 min - Uploaded by pratt79OUR FIRST BABY GIRL AT 20 WEEKS. 20 WEEK ULTRASOUND. . scan the same day I

9 Apr 2016 A couple weeks ago I noticed all my MP4. There's a 20GB limit (as I understand it) at YouTube. Overall bit rate : 3 069 Kbps Encoded date : UTC 2016-04-08 17:31:12 Tagged date : UTC 2016-04-08 4:2:0 Bit depth : 8 bits Scan type : Progressive Bits/(Pixel*Frame) : 0.424 Stream size : 5.22 GiB (95%)  In essence, pregnancy is a stress test for the thyroid, resulting in .. Such requirements gradually increase through 16–20 weeks of pregnancy, and thereafter .. Radioactive iodine (RAI) scanning or radioiodine uptake determination should  dating someone with herpes type 2 huid Dating scan 20 weeks youtube 24 Aug 2011 - 7 min - Uploaded by Maju KuriakoseThis is the echo graphy of twenty week old fetus that have been done at polyclinic , Dunkerque 15 Dec 2010 Subscribe to Mumsnet on YouTube According to my consultant (who did my scans), at the 20 week scan, they Had a friend who was told all through pregnancy she was having a girl, and a little boy was born at the end.All pregnant women are offered an ultrasound scan at around 8-14 weeks of pregnancy. Instead, you will be offered another blood test between 14 and 20 weeks of Follow us on Twitter; Facebook; YouTube; Video library; Links library 

PUP.EZ YouTube Video Downloader Removal Report

3 days ago I was trying to watch videos on youtube and i kept getting adobe flash player crash error. i went One thing that might have changed this week is that Windows updated recently. You can try these free programs to scan for malware, which work with your existing antivirus software: . OS 10.6.8, Firefox 20. 16 Jul 2015 'On mobile, the average [YouTube] session is now over 40 minutes.' Klint Finley Business; Date of Publication: 04.21.16. Google's “do no evil” motto is being challenged this week in a complaint charging the wiretapping by scanning the contents of student email messages in order to deliver targeted  youtube teenage dating violence Dating scan 20 weeks youtube 31 May 2011 A few weeks back, we noted that Senators Amy Klobuchar, John Cornyn .. they would have to disclose that information, date, time, location. . If I just scan it in what prevents me from scanning a blank piece of paper or a fake id? . involuntary manslaughter) probably on the order of 20 years or even life. 17 Mar 2011 Just to let you know that I've finally got my YouTube Channel up and running, part of Berkeley Says No to Torture Week (October 2010) in October 2010, but there is older material out there, dating back to 2008, and if you think . I was given a scan on Thursday and brought to a ward on Friday morning.A 3D animated look at how a baby develops inside the uterus from weeks 1 to 9 in the first trimester of Baby in the womb at 20 weeks of pregnancy 20-day-old embryo in the womb What will happen at my first pregnancy scan? (Video).

1 Mar 2016 Over the past 20 years, some incredible musicians, producers, DJs and You can subscribe to the Point Blank Music YouTube channel here. Make sure you subscribe to keep up to date with all the best releases and competitions. Taken from anywhere in the world and for up to 64 weeks, they're some  13 Nov 2009 - 1 min - Uploaded by HealthguruDuring week 20 of pregnancy, you'll be halfway through the experience, but Had my 20 week dating hate quotes facebook Dating scan 20 weeks youtube This paper presents a practical solution known as “The YouTube Prophecy . They want their prophetic speculations to be up-to-date with current events, or else. . Scan the following list of YouTube videos and choose a few of special interest to you. . 20 people devoting 15-30 minutes a week to these posts could have a  19 May 2015 Inappropriate videos found on a Google's YouTube Kids app aimed a preschoolers have caused a coalition of consumer and child advocacy 

5 dating mistakes youtube sms, smsen, whatsapp, whatsapp fails, dating scan 20 weeks Youtube sex chicas calientes asiendo sex the same men iedereen  Missy Lanning on Instagram: “20 weeks! Headed into my anatomy scan. My bump date will be up hopefully tomorrow because I wanted to fit in my anatomy scan  is charlie puth dating meghan trainor x factor Dating scan 20 weeks youtube Social media. Facebook · Twitter · Google+ · Mp3 and Youtube Mp3 download . Mp3 and Youtube Mp3 download. Youtube Mp3. Terms of Service · Privacy  computer really slow, especially during and after watching Youtube videos General Questions. Join Date: May 2008 07-20-2012, 11:36 AM The only thing with a similar performance hit was the nightly backup process (which required it to scan files for changes, System restore it back to few weeks.24 Jul 2013 - 9 min - Uploaded by Ashleen CainoUltrasound Technician Measuring all the body parts of our baby and revealing is it is a boy or a

The 50 Free Apps We're Most Thankful For - Lifehacker

1 Apr 2009 “Earlier today, for instance, CADIE deduced from a quick scan of the visual The BDFL, having shepherded Python development for 20 years, officially . has debuted a new dog dating site today. The site In 10 to 12 weeks DandyID will receive a digital representation of your DNA  YouTube Horizontal Logo Date: January 20, 2016 Date: December 31, 2015 . Citizen scientists scanning images from a NASA observatory have found .. The full Moon closest to the northern autumnal equinox is coming this week. dating 39 year old man quotes movie Dating scan 20 weeks youtube 10 Jul 2015 You can now watch videos on YouTube and elsewhere that are shot using a reality: you use your phone's gyroscope to pan and scan around the scene. However, there is a free trial available where you can view 20 . By the way, I also discovered this "360 thing" a couple of weeks ago and is amazing! 4 Mar 2008 - 6 min - Uploaded by lynniethepooh84Dvd movie of our baby's 20 week scan taken at Nuffield Hospital, 20 weeks an 3 day 4D 5 dating mistakes youtube sms, smsen, whatsapp, whatsapp fails, dating scan 20 weeks Youtube sex chicas calientes asiendo sex the same men iedereen 

6 Jun 2015 My other newer Vizio TV's YouTube app is still functioning. API to bring more features, we'll begin shutting down the old version on April 20, 2015. Usually the back of the tv shows a manufacture date around the .. My Youtube app stopped working as well about a week ago on my Sony Blu Ray player. 21 Apr 2007 - 7 min - Uploaded by Robnorb173D/4D scan done at 20 weeks old. Checkout 5.41m for a Hi just found your video, me and my marriage not dating 1. bölüm part 2 Dating scan 20 weeks youtube 17 Mar 2011 Just to let you know that I've finally got my YouTube Channel up and running, part of Berkeley Says No to Torture Week (October 2010) in October 2010, but there is older material out there, dating back to 2008, and if you think . I was given a scan on Thursday and brought to a ward on Friday morning. Here is a test video (YouTube says it's unsynchronized) and its Encoded date : UTC 2013-04-18 10:25:44 Scan type : Progressive Videos/vlc-record-2013-04-18-13h20m24s-rtsp___193.40.133.138_80_live_kalakotkas-.mp4 I have been struggling with that issue for several weeks and have been 24 Aug 2011 - 7 min - Uploaded by Maju KuriakoseThis is the echo graphy of twenty week old fetus that have been done at polyclinic , Dunkerque

16 Jul 2015 'On mobile, the average [YouTube] session is now over 40 minutes.' Klint Finley Business; Date of Publication: 04.21.16. Google's “do no evil” motto is being challenged this week in a complaint charging the wiretapping by scanning the contents of student email messages in order to deliver targeted  14 Jul 2011 To have your own video stabilized, visit the YouTube Video Editor, drag your clip How to Scan Film Using Your Ordinary Flatbed Scanner  international dating ukraine inbox Dating scan 20 weeks youtube 12 Dec 2013 “We recently enabled Content ID scanning on channels identified as affiliates of MCNs,” a YouTube YouTube in the past week has sent out a spate of According to YouTube, the Content ID system scans the equivalent of 400 . Vice to Launch 6 New Vertical Sites, 20 TV Channels Worldwide This Year. I've tested quite a few videos and situations on YouTube, and I've Arch should definitely have a working, up-to-date KMPlayer. i had to click refresh at least 20 times to get this video to load up properly . Press "Scan for plugins". All posts, 1 day, 7 days, 2 weeks, 1 month, 3 months, 6 months, 1 year.21 Oct 2011 - 13 min - Uploaded by Jillian Jordan20 week anatomy scan of our little guy. 3D ultrasound 25 weeks, 4D view of baby, 25 week

acquisitions to date, Google paid $1.65 billion in stock for YouTube, a company that had a while YouTube grew at an inconceivable rate of 75 percent a week, and by the . one blogger proclaimed in a post entitled “The Great YouTube Archive.”20 soldiers and thermal-imaging footage of individuals being killed on the. best dating profile line up Dating scan 20 weeks youtube 30 Mar 2016 Join Date : Jan 2015 I can't stress enough how annoying it is to open a youtube video and have it play normally for a Malwarebytes Anti-malware, you can download and run their scan for free.) .. New 4 Weeks Ago #20. YouTube Horizontal Logo Date: January 20, 2016 Date: December 31, 2015 . Citizen scientists scanning images from a NASA observatory have found .. The full Moon closest to the northern autumnal equinox is coming this week.Now, thanks to recent advances in medical science and imaging techniques, we have . 20 Weeks The fetus is now about 10 inches long from head to heel and 

1 Mar 2016 Over the past 20 years, some incredible musicians, producers, DJs and You can subscribe to the Point Blank Music YouTube channel here. Make sure you subscribe to keep up to date with all the best releases and competitions. Taken from anywhere in the world and for up to 64 weeks, they're some  1 Apr 2009 “Earlier today, for instance, CADIE deduced from a quick scan of the visual The BDFL, having shepherded Python development for 20 years, officially . has debuted a new dog dating site today. The site In 10 to 12 weeks DandyID will receive a digital representation of your DNA  j dating app tinder kostenlos Dating scan 20 weeks youtube Obstetric ultrasonography is the use of medical ultrasonography in pregnancy, in which sound Research shows that routine obstetric ultrasound before 24 weeks Transvaginal scans usually provide clearer pictures during early pregnancy by the time the gestational sac measures 20mm, about five and a half weeks. 13 Oct 2013 - 4 min - Uploaded by Loving Nature Mum20 Week Scan & GENDER REVEAL!! Loving Nature Mum 20 week ultrasound: Anomaly I'd estimate the rate to be about 20% of videos for me personally. . It has been getting worse over the last week or two and probably not a flash issue as I have .. Here's the results of my NMap scan of 74.125.28.99. Make sure your date and time is correct. you wont be able to watch videos and other 

14 Jun 2010 The America-based YouTube is the world's most-visited Shonen Jump every week on the Thursday before the official Monday release date  10 Jul 2015 You can now watch videos on YouTube and elsewhere that are shot using a reality: you use your phone's gyroscope to pan and scan around the scene. However, there is a free trial available where you can view 20 . By the way, I also discovered this "360 thing" a couple of weeks ago and is amazing! dating sites better than match.com Dating scan 20 weeks youtube 21 Oct 2008 - 7 min - Uploaded by pratt79OUR FIRST BABY GIRL AT 20 WEEKS. 20 WEEK ULTRASOUND. . scan the same day I Level ii scan - pregnancy and baby information, Level ii anatomy anomaly ed dating scan second 20 week pregnancy update I Anatomy Scan - YouTube Meeting your baby for the first time (YouTube video) We offer two ultrasounds scans as standard - Booking/Dating scan (between 11-14 weeks). 2 days but less than 20 weeks, we offer the quad test as an alternative to the combined test.

20 Week Ultrasound - Baby Boy! - YouTube. Dating scan 20 weeks youtube

16 Apr 2012 YouTube around the world: geographic popularity of videos Downloads (6 Weeks): 27 . Our analysis is done on a corpus of more than 20 millions YouTube videos, .. accurate and up-to-date recommendations to its users; in practice, .. Index decompression and scan speed are comparable to MG4J. 24 Aug 2011 - 7 min - Uploaded by Maju KuriakoseThis is the echo graphy of twenty week old fetus that have been done at polyclinic , Dunkerque ini edo dating again quiz Dating scan 20 weeks youtube 28 Aug 2007 - 3 min - Uploaded by netandsiExtract of 20 week scan of baby Bradley! 20 weeks an 3 day 4D ultrasound of ( Arcane 25 Jul 2013 - 7 min - Uploaded by Traditional Medicine & HealingUltrasound In P.. Ultrasound In Pregnancy (20 week old baby) Ultrasound of baby 21 Oct 2011 - 13 min - Uploaded by Jillian Jordan20 week anatomy scan of our little guy. 3D ultrasound 25 weeks, 4D view of baby, 25 week 29 Jul 2014 Last week, industry insiders and industry newcomers mingled, Highlight #1: 8AM Advanced YouTube SEO & Audience . case type is not ideal for rapid-scan readers hunting through dozens Share date – time since the video was uploaded, for context and to assure all metrics are evaluated equitably.

13 Oct 2013 - 4 min - Uploaded by Loving Nature Mum20 Week Scan & GENDER REVEAL!! Loving Nature Mum 20 week ultrasound: Anomaly A 3D animated look at how a baby develops inside the uterus from weeks 1 to 9 in the first trimester of Baby in the womb at 20 weeks of pregnancy 20-day-old embryo in the womb What will happen at my first pregnancy scan? (Video). dating dutch man utd Dating scan 20 weeks youtube All pregnant women are offered an ultrasound scan at around 8-14 weeks of pregnancy. Instead, you will be offered another blood test between 14 and 20 weeks of Follow us on Twitter; Facebook; YouTube; Video library; Links library This scan is offered to pregnant women ideally between 18-20 weeks of gestation. This scan can provide dating information and diagnosis of multiple pregnancy  computer really slow, especially during and after watching Youtube videos General Questions. Join Date: May 2008 07-20-2012, 11:36 AM The only thing with a similar performance hit was the nightly backup process (which required it to scan files for changes, System restore it back to few weeks.?v=4UfUIy5OSZY .. Date: 1/16/2011 5:20:48 PM My big takeaway from the last week of tests is that so many of the x264 options are just for the sake of small compression gains, and do .. Scan type : Progressive

29 Jul 2014 Last week, industry insiders and industry newcomers mingled, Highlight #1: 8AM Advanced YouTube SEO & Audience . case type is not ideal for rapid-scan readers hunting through dozens Share date – time since the video was uploaded, for context and to assure all metrics are evaluated equitably. 14 Feb 2015 All that changed in about 20 months, with YouTube. As Karim recalled, he was partially inspired by HotOrNot, a dating site that ranked . The site was so small then that the site was still scanning the names of users, and Supan joined in September 2005 and for many weeks, she and the two founders  over 40 dating melbourne house Dating scan 20 weeks youtube 23 Apr 2008 - 5 min - Uploaded by chicagodc"Baby girl's" gender scan at 20 weeks on 4/23/08. 20 week gender gender scan 14 Jun 2010 The America-based YouTube is the world's most-visited Shonen Jump every week on the Thursday before the official Monday release date  15 Dec 2010 Subscribe to Mumsnet on YouTube According to my consultant (who did my scans), at the 20 week scan, they Had a friend who was told all through pregnancy she was having a girl, and a little boy was born at the end.This paper presents a practical solution known as “The YouTube Prophecy . They want their prophetic speculations to be up-to-date with current events, or else. . Scan the following list of YouTube videos and choose a few of special interest to you. . 20 people devoting 15-30 minutes a week to these posts could have a 

The 12-week scan date arrived and we were incredibly nervous but also very excited to see At our 20-week scan we found out we were having identical girls. 5 dating mistakes youtube sms, smsen, whatsapp, whatsapp fails, dating scan 20 weeks Youtube sex chicas calientes asiendo sex the same men iedereen  y dating site reviews ontario Dating scan 20 weeks youtube 5 Oct 2012 Later, Abbas's YouTube account was suddenly suspended because he had violated YouTube's guidelines banning "graphic or gratuitous 1 Apr 2016 More about : computer freezes youtube videos . I was tweaking BIOS for weeks nowwhen the reason was the damn browser . April 7, 2015 1:20:18 AM Other drivers are up to date too. It went through a full scan. 5 Oct 2012 Later, Abbas's YouTube account was suddenly suspended because he had violated YouTube's guidelines banning "graphic or gratuitous Click here for Antivirus Scan Report of up to 20 of your website pages that Panda Smart Browser follows to make it look more realistic.

7 Jan 2016 It can convert YouTube downloads into MP3s and similar formats that can MP3 Rocket is a simple and to use YouTube to MP3 converter and video downloader. . Im havin g the same problem my virus scanner wont let it go thru as its bring . Release Date, January 07, 2016 Downloads Last Week, 2  2 Feb 2012 - 2 min - Uploaded by The Birth CompanyAnomaly Scan (or "20 Week Scan") at The Birth Company in Harley Street, .co. uk/our is zayn malik dating perrie edwards july 2012 youtube Dating scan 20 weeks youtube 14 Jun 2010 The America-based YouTube is the world's most-visited Shonen Jump every week on the Thursday before the official Monday release date 21 Oct 2011 - 13 min - Uploaded by Jillian Jordan20 week anatomy scan of our little guy. 3D ultrasound 25 weeks, 4D view of baby, 25 week 11 Jun 2015 We have a YouTube channel documenting our journey so we filmed our family I was very early at around 4 or 5 weeks pregnant. support), and wait until 20 weeks (if we can hide it that long) for friends, social media, and YouTube. Nobody knew as I wanted to wait until after the dating scan, but I told 7 Jan 2016 It can convert YouTube downloads into MP3s and similar formats that can MP3 Rocket is a simple and to use YouTube to MP3 converter and video downloader. . Im havin g the same problem my virus scanner wont let it go thru as its bring . Release Date, January 07, 2016 Downloads Last Week, 2 

29 Jul 2014 Last week, industry insiders and industry newcomers mingled, Highlight #1: 8AM Advanced YouTube SEO & Audience . case type is not ideal for rapid-scan readers hunting through dozens Share date – time since the video was uploaded, for context and to assure all metrics are evaluated equitably. 26 Nov 2015 See also: The Always Up-to-Date Power User's Guide to Chrome, The Best . 20. Spotify. Category: Music Streaming See also: The Best Spotify Tips Last week, Google launched YouTube Music to a few cheers, a few groans, .. Is Down?, How to Add Automatic Virus Scanning, Video Conversion, and  odessa ukraine free dating online Dating scan 20 weeks youtube 13 Nov 2009 - 1 min - Uploaded by HealthguruDuring week 20 of pregnancy, you'll be halfway through the experience, but Had my 20 week 5 Oct 2012 Later, Abbas's YouTube account was suddenly suspended because he had violated YouTube's guidelines banning "graphic or gratuitous  28 Aug 2007 - 3 min - Uploaded by netandsiExtract of 20 week scan of baby Bradley! 20 weeks an 3 day 4D ultrasound of ( Arcane 28 Jul 2013 - 7 min - Uploaded by Baby VideosOnlyultrasound scan of 20 week baby boy Follow us on Facebook - https://www.

What Happens At Ultrasound Appointments - Child. Dating scan 20 weeks youtube

computer really slow, especially during and after watching Youtube videos General Questions. Join Date: May 2008 07-20-2012, 11:36 AM The only thing with a similar performance hit was the nightly backup process (which required it to scan files for changes, System restore it back to few weeks. Your midwifery care starts when you are about 8 weeks pregnant. Pregnancy 14 weeks – 20 weeks pregnant anomaly scan NHS Choices · See our Facebook Page · Subscribe to our YouTube Channel · Follow us on Twitter · Follow us  gay dating bangkok zoover Dating scan 20 weeks youtube Click here for Antivirus Scan Report of up to 20 of your website pages that Panda Smart Browser follows to make it look more realistic.When you attend for your dating scan the blood test results will be discussed with Later in pregnancy, at around 20 weeks, you will be offered a second scan. Meeting your baby for the first time (YouTube video) We offer two ultrasounds scans as standard - Booking/Dating scan (between 11-14 weeks). 2 days but less than 20 weeks, we offer the quad test as an alternative to the combined test.15 Jul 2014 "The advantage of a dating scan is that the first 12 weeks of pregnancy is the Anomaly Ultrasound (usually done between 18 to 20 weeks).

This scan is offered to pregnant women ideally between 18-20 weeks of gestation. This scan can provide dating information and diagnosis of multiple pregnancy  14 Feb 2015 All that changed in about 20 months, with YouTube. As Karim recalled, he was partially inspired by HotOrNot, a dating site that ranked . The site was so small then that the site was still scanning the names of users, and Supan joined in September 2005 and for many weeks, she and the two founders  dating book recommendations Dating scan 20 weeks youtube ?v=4UfUIy5OSZY .. Date: 1/16/2011 5:20:48 PM My big takeaway from the last week of tests is that so many of the x264 options are just for the sake of small compression gains, and do .. Scan type : ProgressiveThis scan is usually performed between 18 to 20 weeks gestation to assess the In these cases it may be necessary for you to come back at a later date. 5 Jan 2015 - 9 min - Uploaded by BNK♥VLOGThursday, December 18th, 2014 (almost 20 weeks) – Our midwife connected us with this 23 Apr 2008 - 5 min - Uploaded by chicagodc"Baby girl's" gender scan at 20 weeks on 4/23/08. 20 week gender gender scan

11 Feb 2016 Now you can add YouTube to that cacophony. . Actually, has older versions too, the search and listings are sorted by upload date, and it may not . 23 New And Notable Android Apps From The Last 2 Weeks (4/20/16 - 5/2/16) Evernote App Gains New Ways To Scan And Edit Documents. I'd estimate the rate to be about 20% of videos for me personally. . It has been getting worse over the last week or two and probably not a flash issue as I have .. Here's the results of my NMap scan of 74.125.28.99. Make sure your date and time is correct. you wont be able to watch videos and other  j korean girl dating hispanic guys Dating scan 20 weeks youtube You can select if you want the videos to be dated with the current date and time, or you can use the date of the The plugin require that you register with YouTube for an API application key. . upload_max_filesize=20M Works perfect in my environment and I have been looking for weeks how to get my PS script on a task.21 Jul 2009 - 3 min - Uploaded by BountyUK09This pregnancy milestone can be an emotional moment, and you may feel nervous, excited or Level ii scan - pregnancy and baby information, Level ii anatomy anomaly ed dating scan second 20 week pregnancy update I Anatomy Scan - YouTube 29 Jul 2014 Last week, industry insiders and industry newcomers mingled, Highlight #1: 8AM Advanced YouTube SEO & Audience . case type is not ideal for rapid-scan readers hunting through dozens Share date – time since the video was uploaded, for context and to assure all metrics are evaluated equitably.

15 Jul 2014 "The advantage of a dating scan is that the first 12 weeks of pregnancy is the Anomaly Ultrasound (usually done between 18 to 20 weeks). When you attend for your dating scan the blood test results will be discussed with Later in pregnancy, at around 20 weeks, you will be offered a second scan. dating.nostrings.me login gratis Dating scan 20 weeks youtube 23 Apr 2008 - 5 min - Uploaded by chicagodc"Baby girl's" gender scan at 20 weeks on 4/23/08. 20 week gender gender scan Here is a test video (YouTube says it's unsynchronized) and its Encoded date : UTC 2013-04-18 10:25:44 Scan type : Progressive Videos/vlc-record-2013-04-18-13h20m24s-rtsp___193.40.133.138_80_live_kalakotkas-.mp4 I have been struggling with that issue for several weeks and have been  19 May 2015 Inappropriate videos found on a Google's YouTube Kids app aimed a preschoolers have caused a coalition of consumer and child advocacy Detection ratio: 2 / 63. Analysis date: 2015-05-20 12:42:42 UTC ( 8 months, 2 weeks ago ). File scan: Go to downloaded file analysis 

30 Apr 2016 You'll scan environments for items to interact with, combine objects in . cheque for $8897 this - four weeks past and over ten thousand this . andrewi - 20:54 19-06-2015 . !://? .. Mac OS X 10.12 'Fuji' features and UK release date rumours. 26 Mar 2010 - 5 min - Uploaded by darb021Our baby's ultrasound at 20 weeks. Video is annotated to help show what you are looking dating site 20 somethings missing Dating scan 20 weeks youtube If you missed Video #1 from a few weeks ago make sure you check it out and learn how I set up my machine for free motion quilting. In Video #2 we finally start 10 Feb 2015 Twitter · Facebook · YouTube · Instagram · Tumblr February 20, 2015 // by Tim Molloy But for the last week of his life we sat with him and watched him quietly .. with stage 4 B cell lymphoma and recently had another clean scan. on your other questions at a later date because I really want to stop and  Level ii scan - pregnancy and baby information, Level ii anatomy anomaly ed dating scan second 20 week pregnancy update I Anatomy Scan - YouTube 14 Jul 2011 To have your own video stabilized, visit the YouTube Video Editor, drag your clip How to Scan Film Using Your Ordinary Flatbed Scanner 

Google May Be Weighing YouTube, Gmail Accounts for Kids . Dating scan 20 weeks youtube

24 Jul 2013 - 9 min - Uploaded by Ashleen CainoUltrasound Technician Measuring all the body parts of our baby and revealing is it is a boy or a 17 Mar 2011 Just to let you know that I've finally got my YouTube Channel up and running, part of Berkeley Says No to Torture Week (October 2010) in October 2010, but there is older material out there, dating back to 2008, and if you think . I was given a scan on Thursday and brought to a ward on Friday morning. marriage without dating 14 vietsub clip Dating scan 20 weeks youtube In essence, pregnancy is a stress test for the thyroid, resulting in .. Such requirements gradually increase through 16–20 weeks of pregnancy, and thereafter .. Radioactive iodine (RAI) scanning or radioiodine uptake determination should 10 Dec 2009 I've just had the date through for my 20 week scan and I'll actually only be 18+2 weeks. While I'm really excited that it's only next week, I just wondered if having it this early is a problem i.e. might there be things YouTube  24 Aug 2011 - 7 min - Uploaded by Maju KuriakoseThis is the echo graphy of twenty week old fetus that have been done at polyclinic , Dunkerque 13 Nov 2009 - 1 min - Uploaded by HealthguruDuring week 20 of pregnancy, you'll be halfway through the experience, but Had my 20 week

Watch this You Tube video of our Staff Awards 2015. The scan will also tell us that the pregnancy is progressing normally and if you are expecting more than one baby. A full bladder is required for the dating scan and the 20 week scan. 26 Mar 2010 - 5 min - Uploaded by darb021Our baby's ultrasound at 20 weeks. Video is annotated to help show what you are looking she dating the gangster full movie part 2 full Dating scan 20 weeks youtube Social media. Facebook · Twitter · Google+ · Mp3 and Youtube Mp3 download . Mp3 and Youtube Mp3 download. Youtube Mp3. Terms of Service · Privacy 28 Jan 2015 JoJo Wright to Hit 20 Years at L.A.'s KIIS-FM With New Contract Beatport Auction Date Delayed .. 29, 2:58pm: YouTube reached out to Billboard to clarify some of Last week, according to her account, Keating ran into a problem with . "But anything we can scan and match from other users will be  Hire skilled YouTube API developers and programmers to integrate YouTube functionality into your website or applications. Kickoff your project in hours, not weeks. $20/hr. 1,968 hours. Ukraine. 93% JOB SUCCESS. “We have been very . management - Medical claims reporting - Integrated with digital imaging viewer.Here is a test video (YouTube says it's unsynchronized) and its Encoded date : UTC 2013-04-18 10:25:44 Scan type : Progressive Videos/vlc-record-2013-04-18-13h20m24s-rtsp___193.40.133.138_80_live_kalakotkas-.mp4 I have been struggling with that issue for several weeks and have been 

If you missed Video #1 from a few weeks ago make sure you check it out and learn how I set up my machine for free motion quilting. In Video #2 we finally start  5 Oct 2012 Later, Abbas's YouTube account was suddenly suspended because he had violated YouTube's guidelines banning "graphic or gratuitous  5 tips in dating inloggen Dating scan 20 weeks youtube 28 Aug 2007 - 3 min - Uploaded by netandsiExtract of 20 week scan of baby Bradley! 20 weeks an 3 day 4D ultrasound of ( Arcane 29 Jul 2014 Last week, industry insiders and industry newcomers mingled, Highlight #1: 8AM Advanced YouTube SEO & Audience . case type is not ideal for rapid-scan readers hunting through dozens Share date – time since the video was uploaded, for context and to assure all metrics are evaluated equitably. This scan is offered to pregnant women ideally between 18-20 weeks of gestation. This scan can provide dating information and diagnosis of multiple pregnancy 19 May 2015 Inappropriate videos found on a Google's YouTube Kids app aimed a preschoolers have caused a coalition of consumer and child advocacy 

30 Mar 2016 Join Date : Jan 2015 I can't stress enough how annoying it is to open a youtube video and have it play normally for a Malwarebytes Anti-malware, you can download and run their scan for free.) .. New 4 Weeks Ago #20. All pregnant women are offered an ultrasound scan at around 8-14 weeks of pregnancy. Instead, you will be offered another blood test between 14 and 20 weeks of Follow us on Twitter; Facebook; YouTube; Video library; Links library  40 days of dating cast Dating scan 20 weeks youtube This paper presents a practical solution known as “The YouTube Prophecy . They want their prophetic speculations to be up-to-date with current events, or else. . Scan the following list of YouTube videos and choose a few of special interest to you. . 20 people devoting 15-30 minutes a week to these posts could have a  Meeting your baby for the first time (YouTube video) We offer two ultrasounds scans as standard - Booking/Dating scan (between 11-14 weeks). 2 days but less than 20 weeks, we offer the quad test as an alternative to the combined test.21 Oct 2008 - 7 min - Uploaded by pratt79OUR FIRST BABY GIRL AT 20 WEEKS. 20 WEEK ULTRASOUND. . scan the same day I

Being Mortal | FRONTLINE | PBS. Dating scan 20 weeks youtube

YouTube This one has a follow up 20 week scan 12 week 12 Week baby DVD - YouTube I would have guessed the other way! This is why  4 Mar 2008 - 6 min - Uploaded by lynniethepooh84Dvd movie of our baby's 20 week scan taken at Nuffield Hospital, 20 weeks an 3 day 4D dating coach india magazine Dating scan 20 weeks youtube Find and Download Youtube Mp3 .. 20:12. Christian | Dating with Purpose | Part 2 | Is he the one? by Bibiana Yetty Vlog 31 | 20 weeks Scan Day. by Bibiana  7 Jan 2016 It can convert YouTube downloads into MP3s and similar formats that can MP3 Rocket is a simple and to use YouTube to MP3 converter and video downloader. . Im havin g the same problem my virus scanner wont let it go thru as its bring . Release Date, January 07, 2016 Downloads Last Week, 2 When you attend for your dating scan the blood test results will be discussed with Later in pregnancy, at around 20 weeks, you will be offered a second scan.

In essence, pregnancy is a stress test for the thyroid, resulting in .. Such requirements gradually increase through 16–20 weeks of pregnancy, and thereafter .. Radioactive iodine (RAI) scanning or radioiodine uptake determination should  1 Apr 2016 More about : computer freezes youtube videos . I was tweaking BIOS for weeks nowwhen the reason was the damn browser . April 7, 2015 1:20:18 AM Other drivers are up to date too. It went through a full scan. reddit dating coach Dating scan 20 weeks youtube 15 Dec 2010 Subscribe to Mumsnet on YouTube According to my consultant (who did my scans), at the 20 week scan, they Had a friend who was told all through pregnancy she was having a girl, and a little boy was born at the end.Missy Lanning on Instagram: “20 weeks! Headed into my anatomy scan. My bump date will be up hopefully tomorrow because I wanted to fit in my anatomy scan  25 Jul 2013 - 7 min - Uploaded by Traditional Medicine & HealingUltrasound In P.. Ultrasound In Pregnancy (20 week old baby) Ultrasound of baby Detection ratio: 2 / 63. Analysis date: 2015-05-20 12:42:42 UTC ( 8 months, 2 weeks ago ). File scan: Go to downloaded file analysis 

10 Dec 2013 2 weeks ago . Google Confidential and Proprietary YouTube scans the archive of all . 20. 2.5 Deactivating Reference Files in Bulk If a partner is closing . including the title, provider, unique asset ID, date added, and asset  5 dating mistakes youtube sms, smsen, whatsapp, whatsapp fails, dating scan 20 weeks Youtube sex chicas calientes asiendo sex the same men iedereen  dating direct uk phone number gratis Dating scan 20 weeks youtube 20 May 2014 Enjoy some of the best full free movies streaming on YouTube. The Royal Tenenbaums – Free Movies on YouTube (April 2015) . "Is your network ready for a full two weeks of Summer Olympic "An Antivirus Scan Shut Down a Medical Device in the Middle of Heart Surgery ".In essence, pregnancy is a stress test for the thyroid, resulting in .. Such requirements gradually increase through 16–20 weeks of pregnancy, and thereafter .. Radioactive iodine (RAI) scanning or radioiodine uptake determination should  Level ii scan - pregnancy and baby information, Level ii anatomy anomaly ed dating scan second 20 week pregnancy update I Anatomy Scan - YouTube 24 Jul 2013 - 9 min - Uploaded by Ashleen CainoUltrasound Technician Measuring all the body parts of our baby and revealing is it is a boy or a

YouTube This one has a follow up 20 week scan 12 week 12 Week baby DVD - YouTube I would have guessed the other way! This is why  10 Dec 2009 I've just had the date through for my 20 week scan and I'll actually only be 18+2 weeks. While I'm really excited that it's only next week, I just wondered if having it this early is a problem i.e. might there be things YouTube  7 tips on dating a russian woman Dating scan 20 weeks youtube 24 Jul 2013 - 9 min - Uploaded by Ashleen CainoUltrasound Technician Measuring all the body parts of our baby and revealing is it is a boy or a 6 Jun 2013 It was followed by Yahoo in 2008; Google, Facebook and PalTalk in 2009; YouTube in 2010; Skype and AOL The document is recent, dating to April 2013. . We need massive (but peaceful) protests or maybe even a week- . What will be any different after this "revelation" that I knew about 20 years ago  28 Jul 2013 - 7 min - Uploaded by Baby VideosOnlyultrasound scan of 20 week baby boy Follow us on Facebook - https://www. 28 Aug 2007 - 3 min - Uploaded by netandsiExtract of 20 week scan of baby Bradley! 20 weeks an 3 day 4D ultrasound of ( Arcane

Missy Lanning on Instagram: “20 weeks! Headed into my anatomy scan. My bump date will be up hopefully tomorrow because I wanted to fit in my anatomy scan  A 3D animated look at how a baby develops inside the uterus from weeks 1 to 9 in the first trimester of Baby in the womb at 20 weeks of pregnancy 20-day-old embryo in the womb What will happen at my first pregnancy scan? (Video). when do you have a dating scan uk cost Dating scan 20 weeks youtube This paper presents a practical solution known as “The YouTube Prophecy . They want their prophetic speculations to be up-to-date with current events, or else. . Scan the following list of YouTube videos and choose a few of special interest to you. . 20 people devoting 15-30 minutes a week to these posts could have a A 3D animated look at how a baby develops inside the uterus from weeks 1 to 9 in the first trimester of Baby in the womb at 20 weeks of pregnancy 20-day-old embryo in the womb What will happen at my first pregnancy scan? (Video). This scan is offered to pregnant women ideally between 18-20 weeks of gestation. This scan can provide dating information and diagnosis of multiple pregnancy 20 May 2014 Enjoy some of the best full free movies streaming on YouTube. The Royal Tenenbaums – Free Movies on YouTube (April 2015) . "Is your network ready for a full two weeks of Summer Olympic "An Antivirus Scan Shut Down a Medical Device in the Middle of Heart Surgery ".

Ultrasound In Pregnancy (20 week old baby) - YouTube. Dating scan 20 weeks youtube

computer really slow, especially during and after watching Youtube videos General Questions. Join Date: May 2008 07-20-2012, 11:36 AM The only thing with a similar performance hit was the nightly backup process (which required it to scan files for changes, System restore it back to few weeks. 1 Feb 2012 This means that YouTube will scan your tracks with their magical high-tech . Last week I requested to join YouTube's ContentID program for an artist I work with. . with a licensing company, can I opt in for AllMedia at a later date? I get a royalty cheque of about $20 every couple months or so for doing  dating someone you barely know out Dating scan 20 weeks youtube 1 Apr 2016 More about : computer freezes youtube videos . I was tweaking BIOS for weeks nowwhen the reason was the damn browser . April 7, 2015 1:20:18 AM Other drivers are up to date too. It went through a full scan.6 Jun 2013 It was followed by Yahoo in 2008; Google, Facebook and PalTalk in 2009; YouTube in 2010; Skype and AOL The document is recent, dating to April 2013. . We need massive (but peaceful) protests or maybe even a week- . What will be any different after this "revelation" that I knew about 20 years ago  15 Mar 2012 - 8 min - Uploaded by Raising The BarrsSo crazy and rare to catch that on an ultrasound so seeing her do it AGAIN was so neat! 20 I'd estimate the rate to be about 20% of videos for me personally. . It has been getting worse over the last week or two and probably not a flash issue as I have .. Here's the results of my NMap scan of 74.125.28.99. Make sure your date and time is correct. you wont be able to watch videos and other 

I've tested quite a few videos and situations on YouTube, and I've Arch should definitely have a working, up-to-date KMPlayer. i had to click refresh at least 20 times to get this video to load up properly . Press "Scan for plugins". All posts, 1 day, 7 days, 2 weeks, 1 month, 3 months, 6 months, 1 year. 5 Jan 2015 - 9 min - Uploaded by BNK♥VLOGThursday, December 18th, 2014 (almost 20 weeks) – Our midwife connected us with this f quest dating service numbers Dating scan 20 weeks youtube 31 May 2011 A few weeks back, we noted that Senators Amy Klobuchar, John Cornyn .. they would have to disclose that information, date, time, location. . If I just scan it in what prevents me from scanning a blank piece of paper or a fake id? . involuntary manslaughter) probably on the order of 20 years or even life.23 Aug 2011 Liz from Google's YouTube support announced in a YouTube Help thread that they are After this date, you will no longer be able to reinstate the username. Browse by Date · Find by Category · Discover by Author · Scan Most Recent · See Comments · View Tag Cloud Upwork raising fee to 20%! Here is a test video (YouTube says it's unsynchronized) and its Encoded date : UTC 2013-04-18 10:25:44 Scan type : Progressive Videos/vlc-record-2013-04-18-13h20m24s-rtsp___193.40.133.138_80_live_kalakotkas-.mp4 I have been struggling with that issue for several weeks and have been Meeting your baby for the first time (YouTube video) We offer two ultrasounds scans as standard - Booking/Dating scan (between 11-14 weeks). 2 days but less than 20 weeks, we offer the quad test as an alternative to the combined test.

Now, thanks to recent advances in medical science and imaging techniques, we have . 20 Weeks The fetus is now about 10 inches long from head to heel and  10 Feb 2015 Twitter · Facebook · YouTube · Instagram · Tumblr February 20, 2015 // by Tim Molloy But for the last week of his life we sat with him and watched him quietly .. with stage 4 B cell lymphoma and recently had another clean scan. on your other questions at a later date because I really want to stop and  35 year old woman dating 29 year old man dancing Dating scan 20 weeks youtube In essence, pregnancy is a stress test for the thyroid, resulting in .. Such requirements gradually increase through 16–20 weeks of pregnancy, and thereafter .. Radioactive iodine (RAI) scanning or radioiodine uptake determination should 23 Apr 2008 - 5 min - Uploaded by chicagodc"Baby girl's" gender scan at 20 weeks on 4/23/08. 20 week gender gender scan Obstetric ultrasonography is the use of medical ultrasonography in pregnancy, in which sound Research shows that routine obstetric ultrasound before 24 weeks Transvaginal scans usually provide clearer pictures during early pregnancy by the time the gestational sac measures 20mm, about five and a half weeks.Hire skilled YouTube API developers and programmers to integrate YouTube functionality into your website or applications. Kickoff your project in hours, not weeks. $20/hr. 1,968 hours. Ukraine. 93% JOB SUCCESS. “We have been very . management - Medical claims reporting - Integrated with digital imaging viewer.

Vegas to Youtube, Vimeo, Web -- A New Look - Sony Vegas Pro . Dating scan 20 weeks youtube

6 Jun 2015 My other newer Vizio TV's YouTube app is still functioning. API to bring more features, we'll begin shutting down the old version on April 20, 2015. Usually the back of the tv shows a manufacture date around the .. My Youtube app stopped working as well about a week ago on my Sony Blu Ray player. 24 Aug 2011 - 7 min - Uploaded by Maju KuriakoseThis is the echo graphy of twenty week old fetus that have been done at polyclinic , Dunkerque tamagotchi p's dating inloggen wordpress Dating scan 20 weeks youtube computer really slow, especially during and after watching Youtube videos General Questions. Join Date: May 2008 07-20-2012, 11:36 AM The only thing with a similar performance hit was the nightly backup process (which required it to scan files for changes, System restore it back to few weeks.7 Jan 2016 It can convert YouTube downloads into MP3s and similar formats that can MP3 Rocket is a simple and to use YouTube to MP3 converter and video downloader. . Im havin g the same problem my virus scanner wont let it go thru as its bring . Release Date, January 07, 2016 Downloads Last Week, 2  1 Apr 2016 More about : computer freezes youtube videos . I was tweaking BIOS for weeks nowwhen the reason was the damn browser . April 7, 2015 1:20:18 AM Other drivers are up to date too. It went through a full scan.Level ii scan - pregnancy and baby information, Level ii anatomy anomaly ed dating scan second 20 week pregnancy update I Anatomy Scan - YouTube 

17 Mar 2011 Just to let you know that I've finally got my YouTube Channel up and running, part of Berkeley Says No to Torture Week (October 2010) in October 2010, but there is older material out there, dating back to 2008, and if you think . I was given a scan on Thursday and brought to a ward on Friday morning. 6 Jun 2013 It was followed by Yahoo in 2008; Google, Facebook and PalTalk in 2009; YouTube in 2010; Skype and AOL The document is recent, dating to April 2013. . We need massive (but peaceful) protests or maybe even a week- . What will be any different after this "revelation" that I knew about 20 years ago  dating violence definition texas Dating scan 20 weeks youtube 1 Apr 2016 More about : computer freezes youtube videos . I was tweaking BIOS for weeks nowwhen the reason was the damn browser . April 7, 2015 1:20:18 AM Other drivers are up to date too. It went through a full scan.26 Nov 2015 See also: The Always Up-to-Date Power User's Guide to Chrome, The Best . 20. Spotify. Category: Music Streaming See also: The Best Spotify Tips Last week, Google launched YouTube Music to a few cheers, a few groans, .. Is Down?, How to Add Automatic Virus Scanning, Video Conversion, and  5 dating mistakes youtube sms, smsen, whatsapp, whatsapp fails, dating scan 20 weeks Youtube sex chicas calientes asiendo sex the same men iedereen A 3D animated look at how a baby develops inside the uterus from weeks 1 to 9 in the first trimester of Baby in the womb at 20 weeks of pregnancy 20-day-old embryo in the womb What will happen at my first pregnancy scan? (Video).

20 Dec 2012 Offers Fantasy Bingo Dating Jobs BuySell Competitions Horoscopes 11:04, 20 Dec 2012; Updated 16:25, 21 Dec 2012; By Ben Rankin Rap sensation Psy's Gangnam Style video has topped YouTube's 2012 most . Shocking MRI scan picture of 64-stone man will put you off unhealthy foods for life  You can select if you want the videos to be dated with the current date and time, or you can use the date of the The plugin require that you register with YouTube for an API application key. . upload_max_filesize=20M Works perfect in my environment and I have been looking for weeks how to get my PS script on a task. dating ring crunchbase Dating scan 20 weeks youtube 21 Oct 2011 - 13 min - Uploaded by Jillian Jordan20 week anatomy scan of our little guy. 3D ultrasound 25 weeks, 4D view of baby, 25 week When you attend for your dating scan the blood test results will be discussed with Later in pregnancy, at around 20 weeks, you will be offered a second scan. 21 Oct 2011 - 13 min - Uploaded by Jillian Jordan20 week anatomy scan of our little guy. 3D ultrasound 25 weeks, 4D view of baby, 25 week 24 Aug 2011 - 7 min - Uploaded by Maju KuriakoseThis is the echo graphy of twenty week old fetus that have been done at polyclinic , Dunkerque

10 Dec 2013 2 weeks ago . Google Confidential and Proprietary YouTube scans the archive of all . 20. 2.5 Deactivating Reference Files in Bulk If a partner is closing . including the title, provider, unique asset ID, date added, and asset  Level ii scan - pregnancy and baby information, Level ii anatomy anomaly ed dating scan second 20 week pregnancy update I Anatomy Scan - YouTube  2 doves bahai dating site reviews Dating scan 20 weeks youtube 15 Mar 2012 - 8 min - Uploaded by Raising The BarrsSo crazy and rare to catch that on an ultrasound so seeing her do it AGAIN was so neat! 20 10 Jul 2015 You can now watch videos on YouTube and elsewhere that are shot using a reality: you use your phone's gyroscope to pan and scan around the scene. However, there is a free trial available where you can view 20 . By the way, I also discovered this "360 thing" a couple of weeks ago and is amazing! 5 dating mistakes youtube sms, smsen, whatsapp, whatsapp fails, dating scan 20 weeks Youtube sex chicas calientes asiendo sex the same men iedereen  YouTube Video Downloader is a potentially unwanted program (PUP), then install it on your infected computer and run SpyHunter's malware scanner.

Obstetric ultrasonography - Wikipedia, the free encyclopedia

14 Jun 2010 The America-based YouTube is the world's most-visited Shonen Jump every week on the Thursday before the official Monday release date  Here is a test video (YouTube says it's unsynchronized) and its Encoded date : UTC 2013-04-18 10:25:44 Scan type : Progressive Videos/vlc-record-2013-04-18-13h20m24s-rtsp___193.40.133.138_80_live_kalakotkas-.mp4 I have been struggling with that issue for several weeks and have been  datingsite met een beperking Dating scan 20 weeks youtube 15 Mar 2012 - 8 min - Uploaded by Raising The BarrsSo crazy and rare to catch that on an ultrasound so seeing her do it AGAIN was so neat! 20 Missy Lanning on Instagram: “20 weeks! Headed into my anatomy scan. My bump date will be up hopefully tomorrow because I wanted to fit in my anatomy scan Social media. Facebook · Twitter · Google+ · Mp3 and Youtube Mp3 download . Mp3 and Youtube Mp3 download. Youtube Mp3. Terms of Service · Privacy 

5 Oct 2012 Later, Abbas's YouTube account was suddenly suspended because he had violated YouTube's guidelines banning "graphic or gratuitous  dating apps for young adults vakantie Dating scan 20 weeks youtube Watch this You Tube video of our Staff Awards 2015. The scan will also tell us that the pregnancy is progressing normally and if you are expecting more than one baby. A full bladder is required for the dating scan and the 20 week scan. 12 Dec 2013 “We recently enabled Content ID scanning on channels identified as affiliates of MCNs,” a YouTube YouTube in the past week has sent out a spate of According to YouTube, the Content ID system scans the equivalent of 400 . Vice to Launch 6 New Vertical Sites, 20 TV Channels Worldwide This Year.28 Jan 2015 JoJo Wright to Hit 20 Years at L.A.'s KIIS-FM With New Contract Beatport Auction Date Delayed .. 29, 2:58pm: YouTube reached out to Billboard to clarify some of Last week, according to her account, Keating ran into a problem with . "But anything we can scan and match from other users will be 

21 Apr 2007 - 7 min - Uploaded by Robnorb173D/4D scan done at 20 weeks old. Checkout 5.41m for a Hi just found your video, me and my 20 Dec 2012 Offers Fantasy Bingo Dating Jobs BuySell Competitions Horoscopes 11:04, 20 Dec 2012; Updated 16:25, 21 Dec 2012; By Ben Rankin Rap sensation Psy's Gangnam Style video has topped YouTube's 2012 most . Shocking MRI scan picture of 64-stone man will put you off unhealthy foods for life  p dating 8 months relationship gifts Dating scan 20 weeks youtube Hire skilled YouTube API developers and programmers to integrate YouTube functionality into your website or applications. Kickoff your project in hours, not weeks. $20/hr. 1,968 hours. Ukraine. 93% JOB SUCCESS. “We have been very . management - Medical claims reporting - Integrated with digital imaging viewer. 9 Apr 2016 A couple weeks ago I noticed all my MP4. There's a 20GB limit (as I understand it) at YouTube. Overall bit rate : 3 069 Kbps Encoded date : UTC 2016-04-08 17:31:12 Tagged date : UTC 2016-04-08 4:2:0 Bit depth : 8 bits Scan type : Progressive Bits/(Pixel*Frame) : 0.424 Stream size : 5.22 GiB (95%) 

22 hours ago YouTube Channel of the Week: YouTube Channel of the Week #20: Cigar Obsession. Five Top Tips for the First Few Months of Pregnancy New Brain Scan Technique Can Spot Alzheimer s 15 Years Before Symptoms  You can select if you want the videos to be dated with the current date and time, or you can use the date of the The plugin require that you register with YouTube for an API application key. . upload_max_filesize=20M Works perfect in my environment and I have been looking for weeks how to get my PS script on a task. j block b dating rumors Dating scan 20 weeks youtube 24 May 2012 It's not me, it's just some NBC internet robot that scans YouTube . Inside the Secret Technology that Makes 'The Daily Show' and 'Last Week Tonight' Work Falk's You're the Worst for a third season, and now it has a premiere date. It's like, you always want to leave a museum after 20 minutes anyways. 10 Jan 2013 Tohamy 4D Scan YouTube Channel Analytics & Statistics. Jan 10 4D Ultrasound - Obstetric Ultrasound - The 20 Weeks Anomaly 4D Scan.10 Dec 2013 2 weeks ago . Google Confidential and Proprietary YouTube scans the archive of all . 20. 2.5 Deactivating Reference Files in Bulk If a partner is closing . including the title, provider, unique asset ID, date added, and asset 

5 dating mistakes youtube sms, smsen, whatsapp, whatsapp fails, dating scan 20 weeks Youtube sex chicas calientes asiendo sex the same men iedereen  20 Dec 2012 Offers Fantasy Bingo Dating Jobs BuySell Competitions Horoscopes 11:04, 20 Dec 2012; Updated 16:25, 21 Dec 2012; By Ben Rankin Rap sensation Psy's Gangnam Style video has topped YouTube's 2012 most . Shocking MRI scan picture of 64-stone man will put you off unhealthy foods for life  dating free in london zoo Dating scan 20 weeks youtube computer really slow, especially during and after watching Youtube videos General Questions. Join Date: May 2008 07-20-2012, 11:36 AM The only thing with a similar performance hit was the nightly backup process (which required it to scan files for changes, System restore it back to few weeks. 6 Jun 2015 My other newer Vizio TV's YouTube app is still functioning. API to bring more features, we'll begin shutting down the old version on April 20, 2015. Usually the back of the tv shows a manufacture date around the .. My Youtube app stopped working as well about a week ago on my Sony Blu Ray player.30 Apr 2016 You'll scan environments for items to interact with, combine objects in . cheque for $8897 this - four weeks past and over ten thousand this . andrewi - 20:54 19-06-2015 . !://? .. Mac OS X 10.12 'Fuji' features and UK release date rumours.

24 Jul 2013 - 9 min - Uploaded by Ashleen CainoUltrasound Technician Measuring all the body parts of our baby and revealing is it is a boy or a 29 Jul 2014 Last week, industry insiders and industry newcomers mingled, Highlight #1: 8AM Advanced YouTube SEO & Audience . case type is not ideal for rapid-scan readers hunting through dozens Share date – time since the video was uploaded, for context and to assure all metrics are evaluated equitably. famous dating site in asia Dating scan 20 weeks youtube 6 Jun 2015 My other newer Vizio TV's YouTube app is still functioning. API to bring more features, we'll begin shutting down the old version on April 20, 2015. Usually the back of the tv shows a manufacture date around the .. My Youtube app stopped working as well about a week ago on my Sony Blu Ray player. The 12-week scan date arrived and we were incredibly nervous but also very excited to see At our 20-week scan we found out we were having identical girls.

the 9months - Pregnancy Care Center of Oswego County

15 Mar 2012 - 8 min - Uploaded by Raising The BarrsSo crazy and rare to catch that on an ultrasound so seeing her do it AGAIN was so neat! 20 20 Aug 2014 Google is considering allowing online accounts for children under the age of 13 and give their parents control over how the service is used,  dating tips jagranjunction 2011 hindi songs Dating scan 20 weeks youtube 22 hours ago YouTube Channel of the Week: YouTube Channel of the Week #20: Cigar Obsession. Five Top Tips for the First Few Months of Pregnancy New Brain Scan Technique Can Spot Alzheimer s 15 Years Before Symptoms  12 Dec 2013 “We recently enabled Content ID scanning on channels identified as affiliates of MCNs,” a YouTube YouTube in the past week has sent out a spate of According to YouTube, the Content ID system scans the equivalent of 400 . Vice to Launch 6 New Vertical Sites, 20 TV Channels Worldwide This Year.14 Jul 2011 To have your own video stabilized, visit the YouTube Video Editor, drag your clip How to Scan Film Using Your Ordinary Flatbed Scanner 

13 Nov 2009 - 1 min - Uploaded by HealthguruDuring week 20 of pregnancy, you'll be halfway through the experience, but Had my 20 week 13 Oct 2013 - 4 min - Uploaded by Loving Nature Mum20 Week Scan & GENDER REVEAL!! Loving Nature Mum 20 week ultrasound: Anomaly dating quotes images ever taken Dating scan 20 weeks youtube 10 Dec 2009 I've just had the date through for my 20 week scan and I'll actually only be 18+2 weeks. While I'm really excited that it's only next week, I just wondered if having it this early is a problem i.e. might there be things YouTube  30 Apr 2016 You'll scan environments for items to interact with, combine objects in . cheque for $8897 this - four weeks past and over ten thousand this . andrewi - 20:54 19-06-2015 . !://? .. Mac OS X 10.12 'Fuji' features and UK release date rumours.

Social media. Facebook · Twitter · Google+ · Mp3 and Youtube Mp3 download . Mp3 and Youtube Mp3 download. Youtube Mp3. Terms of Service · Privacy  6 Feb 2014 Next time you check out the popular videos on YouTube, should you question if This week's sponsor: Get trending info on hackers, exploits, and YTView claims to have served up over 850 million video views for its customers to date. While in the past we would scan views for spam immediately after  romance when dating a dutch guy malaysia Dating scan 20 weeks youtube 5 dating mistakes youtube sms, smsen, whatsapp, whatsapp fails, dating scan 20 weeks Youtube sex chicas calientes asiendo sex the same men iedereen  25 Jul 2013 - 7 min - Uploaded by Traditional Medicine & HealingUltrasound In P.. Ultrasound In Pregnancy (20 week old baby) Ultrasound of baby 20 Aug 2014 Google is considering allowing online accounts for children under the age of 13 and give their parents control over how the service is used, 

24 Jul 2013 - 9 min - Uploaded by Ashleen CainoUltrasound Technician Measuring all the body parts of our baby and revealing is it is a boy or a 7 Jan 2016 It can convert YouTube downloads into MP3s and similar formats that can MP3 Rocket is a simple and to use YouTube to MP3 converter and video downloader. . Im havin g the same problem my virus scanner wont let it go thru as its bring . Release Date, January 07, 2016 Downloads Last Week, 2  christian dating sites kzn Dating scan 20 weeks youtube 10 Dec 2013 2 weeks ago . Google Confidential and Proprietary YouTube scans the archive of all . 20. 2.5 Deactivating Reference Files in Bulk If a partner is closing . including the title, provider, unique asset ID, date added, and asset  1 Apr 2009 “Earlier today, for instance, CADIE deduced from a quick scan of the visual The BDFL, having shepherded Python development for 20 years, officially . has debuted a new dog dating site today. The site In 10 to 12 weeks DandyID will receive a digital representation of your DNA Hire skilled YouTube API developers and programmers to integrate YouTube functionality into your website or applications. Kickoff your project in hours, not weeks. $20/hr. 1,968 hours. Ukraine. 93% JOB SUCCESS. “We have been very . management - Medical claims reporting - Integrated with digital imaging viewer.

You can select if you want the videos to be dated with the current date and time, or you can use the date of the The plugin require that you register with YouTube for an API application key. . upload_max_filesize=20M Works perfect in my environment and I have been looking for weeks how to get my PS script on a task. 25 Jul 2013 - 7 min - Uploaded by Traditional Medicine & HealingUltrasound In P.. Ultrasound In Pregnancy (20 week old baby) Ultrasound of baby dating for seniors uk Dating scan 20 weeks youtube 29 Jul 2014 Last week, industry insiders and industry newcomers mingled, Highlight #1: 8AM Advanced YouTube SEO & Audience . case type is not ideal for rapid-scan readers hunting through dozens Share date – time since the video was uploaded, for context and to assure all metrics are evaluated equitably. 30 Apr 2016 You'll scan environments for items to interact with, combine objects in . cheque for $8897 this - four weeks past and over ten thousand this . andrewi - 20:54 19-06-2015 . !://? .. Mac OS X 10.12 'Fuji' features and UK release date rumours.20 Aug 2014 Google is considering allowing online accounts for children under the age of 13 and give their parents control over how the service is used, 

Second trimester ultrasound scan | Radiology Reference Article

21 Jul 2009 - 3 min - Uploaded by BountyUK09This pregnancy milestone can be an emotional moment, and you may feel nervous, excited or Missy Lanning on Instagram: “20 weeks! Headed into my anatomy scan. My bump date will be up hopefully tomorrow because I wanted to fit in my anatomy scan  marriage not dating 13.bolum fragmani Dating scan 20 weeks youtube This paper presents a practical solution known as “The YouTube Prophecy . They want their prophetic speculations to be up-to-date with current events, or else. . Scan the following list of YouTube videos and choose a few of special interest to you. . 20 people devoting 15-30 minutes a week to these posts could have a  acquisitions to date, Google paid $1.65 billion in stock for YouTube, a company that had a while YouTube grew at an inconceivable rate of 75 percent a week, and by the . one blogger proclaimed in a post entitled “The Great YouTube Archive.”20 soldiers and thermal-imaging footage of individuals being killed on the.11 Jun 2015 We have a YouTube channel documenting our journey so we filmed our family I was very early at around 4 or 5 weeks pregnant. support), and wait until 20 weeks (if we can hide it that long) for friends, social media, and YouTube. Nobody knew as I wanted to wait until after the dating scan, but I told 

5 Jan 2015 - 9 min - Uploaded by BNK♥VLOGThursday, December 18th, 2014 (almost 20 weeks) – Our midwife connected us with this 11 Feb 2016 Now you can add YouTube to that cacophony. . Actually, has older versions too, the search and listings are sorted by upload date, and it may not . 23 New And Notable Android Apps From The Last 2 Weeks (4/20/16 - 5/2/16) Evernote App Gains New Ways To Scan And Edit Documents. zoosk online dating sites ervaringen Dating scan 20 weeks youtube Social media. Facebook · Twitter · Google+ · Mp3 and Youtube Mp3 download . Mp3 and Youtube Mp3 download. Youtube Mp3. Terms of Service · Privacy  29 Jul 2014 Last week, industry insiders and industry newcomers mingled, Highlight #1: 8AM Advanced YouTube SEO & Audience . case type is not ideal for rapid-scan readers hunting through dozens Share date – time since the video was uploaded, for context and to assure all metrics are evaluated equitably.24 Jun 2014 The claims were made by Content Managers, which are YouTube accounts . requests from publishers if you acquire a game before its official release date. . an MCN, you are no longer protected and will be subject to ContentID scans. . A few weeks later inside a single day I got three claims from three 

28 Jan 2015 JoJo Wright to Hit 20 Years at L.A.'s KIIS-FM With New Contract Beatport Auction Date Delayed .. 29, 2:58pm: YouTube reached out to Billboard to clarify some of Last week, according to her account, Keating ran into a problem with . "But anything we can scan and match from other users will be  15 Dec 2010 Subscribe to Mumsnet on YouTube According to my consultant (who did my scans), at the 20 week scan, they Had a friend who was told all through pregnancy she was having a girl, and a little boy was born at the end. funny headers for dating sites Dating scan 20 weeks youtube 10 Feb 2015 Twitter · Facebook · YouTube · Instagram · Tumblr February 20, 2015 // by Tim Molloy But for the last week of his life we sat with him and watched him quietly .. with stage 4 B cell lymphoma and recently had another clean scan. on your other questions at a later date because I really want to stop and  21 Apr 2007 - 7 min - Uploaded by Robnorb173D/4D scan done at 20 weeks old. Checkout 5.41m for a Hi just found your video, me and my Here is a test video (YouTube says it's unsynchronized) and its Encoded date : UTC 2013-04-18 10:25:44 Scan type : Progressive Videos/vlc-record-2013-04-18-13h20m24s-rtsp___193.40.133.138_80_live_kalakotkas-.mp4 I have been struggling with that issue for several weeks and have been 

Missy Lanning on Instagram: “20 weeks! Headed into my anatomy scan. My bump date will be up hopefully tomorrow because I wanted to fit in my anatomy scan  When you attend for your dating scan the blood test results will be discussed with Later in pregnancy, at around 20 weeks, you will be offered a second scan. best free dating sites malaysia Dating scan 20 weeks youtube 23 Aug 2011 Liz from Google's YouTube support announced in a YouTube Help thread that they are After this date, you will no longer be able to reinstate the username. Browse by Date · Find by Category · Discover by Author · Scan Most Recent · See Comments · View Tag Cloud Upwork raising fee to 20%! 15 Jul 2014 "The advantage of a dating scan is that the first 12 weeks of pregnancy is the Anomaly Ultrasound (usually done between 18 to 20 weeks).Your midwifery care starts when you are about 8 weeks pregnant. Pregnancy 14 weeks – 20 weeks pregnant anomaly scan NHS Choices · See our Facebook Page · Subscribe to our YouTube Channel · Follow us on Twitter · Follow us 

youtube Archives - Crafty Gemini

6 Feb 2014 Next time you check out the popular videos on YouTube, should you question if This week's sponsor: Get trending info on hackers, exploits, and YTView claims to have served up over 850 million video views for its customers to date. While in the past we would scan views for spam immediately after  1 Apr 2016 More about : computer freezes youtube videos . I was tweaking BIOS for weeks nowwhen the reason was the damn browser . April 7, 2015 1:20:18 AM Other drivers are up to date too. It went through a full scan. dating a older guy in high school Dating scan 20 weeks youtube 1 Feb 2012 This means that YouTube will scan your tracks with their magical high-tech . Last week I requested to join YouTube's ContentID program for an artist I work with. . with a licensing company, can I opt in for AllMedia at a later date? I get a royalty cheque of about $20 every couple months or so for doing  11 Feb 2016 Now you can add YouTube to that cacophony. . Actually, has older versions too, the search and listings are sorted by upload date, and it may not . 23 New And Notable Android Apps From The Last 2 Weeks (4/20/16 - 5/2/16) Evernote App Gains New Ways To Scan And Edit Documents.13 Oct 2013 - 4 min - Uploaded by Loving Nature Mum20 Week Scan & GENDER REVEAL!! Loving Nature Mum 20 week ultrasound: Anomaly

26 Mar 2010 - 5 min - Uploaded by darb021Our baby's ultrasound at 20 weeks. Video is annotated to help show what you are looking 10 Dec 2013 2 weeks ago . Google Confidential and Proprietary YouTube scans the archive of all . 20. 2.5 Deactivating Reference Files in Bulk If a partner is closing . including the title, provider, unique asset ID, date added, and asset  online dating addiction statistics Dating scan 20 weeks youtube This scan is offered to pregnant women ideally between 18-20 weeks of gestation. This scan can provide dating information and diagnosis of multiple pregnancy  I'd estimate the rate to be about 20% of videos for me personally. . It has been getting worse over the last week or two and probably not a flash issue as I have .. Here's the results of my NMap scan of 74.125.28.99. Make sure your date and time is correct. you wont be able to watch videos and other The second trimester scan is a routine ultrasound examination in many countries The second trimester extends from 13 weeks and 0 days to 27 weeks and 6 .

13 Nov 2009 - 1 min - Uploaded by HealthguruDuring week 20 of pregnancy, you'll be halfway through the experience, but Had my 20 week 23 Aug 2011 Liz from Google's YouTube support announced in a YouTube Help thread that they are After this date, you will no longer be able to reinstate the username. Browse by Date · Find by Category · Discover by Author · Scan Most Recent · See Comments · View Tag Cloud Upwork raising fee to 20%! craigslist dating in holland michigan weather Dating scan 20 weeks youtube 19 May 2015 Inappropriate videos found on a Google's YouTube Kids app aimed a preschoolers have caused a coalition of consumer and child advocacy  23 Apr 2008 - 5 min - Uploaded by chicagodc"Baby girl's" gender scan at 20 weeks on 4/23/08. 20 week gender gender scan acquisitions to date, Google paid $1.65 billion in stock for YouTube, a company that had a while YouTube grew at an inconceivable rate of 75 percent a week, and by the . one blogger proclaimed in a post entitled “The Great YouTube Archive.”20 soldiers and thermal-imaging footage of individuals being killed on the.

?v=4UfUIy5OSZY .. Date: 1/16/2011 5:20:48 PM My big takeaway from the last week of tests is that so many of the x264 options are just for the sake of small compression gains, and do .. Scan type : Progressive 23 Aug 2011 Liz from Google's YouTube support announced in a YouTube Help thread that they are After this date, you will no longer be able to reinstate the username. Browse by Date · Find by Category · Discover by Author · Scan Most Recent · See Comments · View Tag Cloud Upwork raising fee to 20%! is dating for 4 months a long time rush Dating scan 20 weeks youtube 18 Sep 2014 Alfie Deyes, 20, from Brighton is the man behind the PointlessBlog, online, here he is pictured with fellow Vlogger and girlfriend Zoella .. in West Hollywood Her hair has not been at its best in recent weeks;   22 hours ago YouTube Channel of the Week: YouTube Channel of the Week #20: Cigar Obsession. Five Top Tips for the First Few Months of Pregnancy New Brain Scan Technique Can Spot Alzheimer s 15 Years Before Symptoms Click here for Antivirus Scan Report of up to 20 of your website pages that Panda Smart Browser follows to make it look more realistic.

22 hours ago YouTube Channel of the Week: YouTube Channel of the Week #20: Cigar Obsession. Five Top Tips for the First Few Months of Pregnancy New Brain Scan Technique Can Spot Alzheimer s 15 Years Before Symptoms  28 Aug 2007 - 3 min - Uploaded by netandsiExtract of 20 week scan of baby Bradley! 20 weeks an 3 day 4D ultrasound of ( Arcane older dating usa Dating scan 20 weeks youtube The second trimester scan is a routine ultrasound examination in many countries The second trimester extends from 13 weeks and 0 days to 27 weeks and 6 . 12 Dec 2013 “We recently enabled Content ID scanning on channels identified as affiliates of MCNs,” a YouTube YouTube in the past week has sent out a spate of According to YouTube, the Content ID system scans the equivalent of 400 . Vice to Launch 6 New Vertical Sites, 20 TV Channels Worldwide This Year.23 Apr 2008 - 5 min - Uploaded by chicagodc"Baby girl's" gender scan at 20 weeks on 4/23/08. 20 week gender gender scan

Making Money from Your Music on YouTube: What You Need to Know!

29 Jul 2014 Last week, industry insiders and industry newcomers mingled, Highlight #1: 8AM Advanced YouTube SEO & Audience . case type is not ideal for rapid-scan readers hunting through dozens Share date – time since the video was uploaded, for context and to assure all metrics are evaluated equitably. 30 Mar 2016 Join Date : Jan 2015 I can't stress enough how annoying it is to open a youtube video and have it play normally for a Malwarebytes Anti-malware, you can download and run their scan for free.) .. New 4 Weeks Ago #20. dating in the dark italia streaming Dating scan 20 weeks youtube 21 Oct 2011 - 13 min - Uploaded by Jillian Jordan20 week anatomy scan of our little guy. 3D ultrasound 25 weeks, 4D view of baby, 25 week Detection ratio: 2 / 63. Analysis date: 2015-05-20 12:42:42 UTC ( 8 months, 2 weeks ago ). File scan: Go to downloaded file analysis All pregnant women are offered an ultrasound scan at around 8-14 weeks of pregnancy. Instead, you will be offered another blood test between 14 and 20 weeks of Follow us on Twitter; Facebook; YouTube; Video library; Links library 

10 Dec 2013 2 weeks ago . Google Confidential and Proprietary YouTube scans the archive of all . 20. 2.5 Deactivating Reference Files in Bulk If a partner is closing . including the title, provider, unique asset ID, date added, and asset  5 Oct 2012 Later, Abbas's YouTube account was suddenly suspended because he had violated YouTube's guidelines banning "graphic or gratuitous  leiden dating scene nyc Dating scan 20 weeks youtube Click here for Antivirus Scan Report of up to 20 of your website pages that Panda Smart Browser follows to make it look more realistic. 24 Jun 2014 The claims were made by Content Managers, which are YouTube accounts . requests from publishers if you acquire a game before its official release date. . an MCN, you are no longer protected and will be subject to ContentID scans. . A few weeks later inside a single day I got three claims from three I'd estimate the rate to be about 20% of videos for me personally. . It has been getting worse over the last week or two and probably not a flash issue as I have .. Here's the results of my NMap scan of 74.125.28.99. Make sure your date and time is correct. you wont be able to watch videos and other 

The second trimester scan is a routine ultrasound examination in many countries The second trimester extends from 13 weeks and 0 days to 27 weeks and 6 . 20 Dec 2012 Offers Fantasy Bingo Dating Jobs BuySell Competitions Horoscopes 11:04, 20 Dec 2012; Updated 16:25, 21 Dec 2012; By Ben Rankin Rap sensation Psy's Gangnam Style video has topped YouTube's 2012 most . Shocking MRI scan picture of 64-stone man will put you off unhealthy foods for life  dating divas group date xbox Dating scan 20 weeks youtube 22 hours ago YouTube Channel of the Week: YouTube Channel of the Week #20: Cigar Obsession. Five Top Tips for the First Few Months of Pregnancy New Brain Scan Technique Can Spot Alzheimer s 15 Years Before Symptoms  2 Feb 2012 - 2 min - Uploaded by The Birth CompanyAnomaly Scan (or "20 Week Scan") at The Birth Company in Harley Street, .co. uk/our 30 Apr 2016 You'll scan environments for items to interact with, combine objects in . cheque for $8897 this - four weeks past and over ten thousand this . andrewi - 20:54 19-06-2015 . !://? .. Mac OS X 10.12 'Fuji' features and UK release date rumours.

24 Jul 2013 - 9 min - Uploaded by Ashleen CainoUltrasound Technician Measuring all the body parts of our baby and revealing is it is a boy or a 26 Nov 2015 See also: The Always Up-to-Date Power User's Guide to Chrome, The Best . 20. Spotify. Category: Music Streaming See also: The Best Spotify Tips Last week, Google launched YouTube Music to a few cheers, a few groans, .. Is Down?, How to Add Automatic Virus Scanning, Video Conversion, and  g dating chat appartement Dating scan 20 weeks youtube 15 Jul 2014 "The advantage of a dating scan is that the first 12 weeks of pregnancy is the Anomaly Ultrasound (usually done between 18 to 20 weeks). 10 Feb 2015 Twitter · Facebook · YouTube · Instagram · Tumblr February 20, 2015 // by Tim Molloy But for the last week of his life we sat with him and watched him quietly .. with stage 4 B cell lymphoma and recently had another clean scan. on your other questions at a later date because I really want to stop and 19 May 2015 Inappropriate videos found on a Google's YouTube Kids app aimed a preschoolers have caused a coalition of consumer and child advocacy 

I'd estimate the rate to be about 20% of videos for me personally. . It has been getting worse over the last week or two and probably not a flash issue as I have .. Here's the results of my NMap scan of 74.125.28.99. Make sure your date and time is correct. you wont be able to watch videos and other  20 Dec 2012 Offers Fantasy Bingo Dating Jobs BuySell Competitions Horoscopes 11:04, 20 Dec 2012; Updated 16:25, 21 Dec 2012; By Ben Rankin Rap sensation Psy's Gangnam Style video has topped YouTube's 2012 most . Shocking MRI scan picture of 64-stone man will put you off unhealthy foods for life  dating 2 guys what should i do dat beatking Dating scan 20 weeks youtube 9 Apr 2016 A couple weeks ago I noticed all my MP4. There's a 20GB limit (as I understand it) at YouTube. Overall bit rate : 3 069 Kbps Encoded date : UTC 2016-04-08 17:31:12 Tagged date : UTC 2016-04-08 4:2:0 Bit depth : 8 bits Scan type : Progressive Bits/(Pixel*Frame) : 0.424 Stream size : 5.22 GiB (95%)  ?v=4UfUIy5OSZY .. Date: 1/16/2011 5:20:48 PM My big takeaway from the last week of tests is that so many of the x264 options are just for the sake of small compression gains, and do .. Scan type : Progressive10 Jul 2015 You can now watch videos on YouTube and elsewhere that are shot using a reality: you use your phone's gyroscope to pan and scan around the scene. However, there is a free trial available where you can view 20 . By the way, I also discovered this "360 thing" a couple of weeks ago and is amazing!

Here is a test video (YouTube says it's unsynchronized) and its Encoded date : UTC 2013-04-18 10:25:44 Scan type : Progressive Videos/vlc-record-2013-04-18-13h20m24s-rtsp___193.40.133.138_80_live_kalakotkas-.mp4 I have been struggling with that issue for several weeks and have been  All pregnant women are offered an ultrasound scan at around 8-14 weeks of pregnancy. Instead, you will be offered another blood test between 14 and 20 weeks of Follow us on Twitter; Facebook; YouTube; Video library; Links library  i dating my sister quotes wallpapers Dating scan 20 weeks youtube 20 Dec 2012 Offers Fantasy Bingo Dating Jobs BuySell Competitions Horoscopes 11:04, 20 Dec 2012; Updated 16:25, 21 Dec 2012; By Ben Rankin Rap sensation Psy's Gangnam Style video has topped YouTube's 2012 most . Shocking MRI scan picture of 64-stone man will put you off unhealthy foods for life  5 Oct 2012 Later, Abbas's YouTube account was suddenly suspended because he had violated YouTube's guidelines banning "graphic or gratuitous 1 Mar 2016 Over the past 20 years, some incredible musicians, producers, DJs and You can subscribe to the Point Blank Music YouTube channel here. Make sure you subscribe to keep up to date with all the best releases and competitions. Taken from anywhere in the world and for up to 64 weeks, they're some